17.09.2021

The Hunger Games Mockingjay Part 2 Download Utorrent

  1. The Hunger Games Mockingjay Part 2 Download Utorrent Full

The Hunger Games: Mockingjay - Part 1: With the Games destroyed, Katniss Everdeen, along with Gale, Finnick and Beetee, end up in the so thought 'destroyed' District 13. Under the leadership of President Coin and the advice of her friends, Katniss becomes the 'Mockingjay', the symbol of rebellion for the districts of Panem. The Hunger Games Mockingjay Part 2 2015 x264 1080p Dual Audio [Hindi + Eng] BluRay Esubs Exclusive By Maher. SEEDING WILL BE SLOW -= Nothing can prepare you for the end=. 36 rows  The Hunger Games: Mockingjay - Part 2 (2015) Download.torrent - The Hunger Games: Mockingjay - Part 2 (2015): After young Katniss Everdeen agrees to be the symbol of rebellion, the Mockingjay, she tries to return Peeta to his normal state, tries to get to the Capitol, and tries to deal with the battles coming her way.but all for her main goal; assassinating President Snow and returning.

You know what they say: All is truthful in like, war, and wartime propaganda. Effectively, likelihood are Plutarch Heavensbee has stated (or imagined) that at some issue.

And in a new teaser for The Starvation Online games: Mockingjay – Component 2, initial posted on Jennifer Lawrence’s Facebook site, Katniss can be witnessed carrying a crimson fit and some type of cape/hood as she stands proudly on a statue of the sign for District twelve (and now, the insurrection). That image, paired with epic music, is then adopted by a different display, which reads, “Stand by for a information from District thirteen.” In other phrases, Katniss’ superhero pose is supposed to rally supporters in the war towards the Capitol.

The Hunger Games Mockingjay Part 2 Download Utorrent

But now the question is: Is Katniss’ crimson fit only component of a propaganda marketing campaign, or will we see it in motion?

The Hunger Games Mockingjay Part 2 Download Utorrent Full

Games
Download .torrent

You want uTorrent for downloading .torrent information.

Related Posts


http://www.imdb.com/title/tt1951266/
As the war of Panem escalates to the destruction of other districts by the Capitol, Katniss Everdeen, the reluctant leader of the rebellion, must bring together an army against President Snow, while all she holds dear hangs in the balance.
Director: Francis Lawrence
Writers: Peter Craig (screenplay), Danny Strong (screenplay)
Stars: Jennifer Lawrence, Josh Hutcherson, Liam Hemsworth
Genres: Adventure Sci-Fi
Country: USA
Language: English
The.Hunger.Games-Mockingjay.Part.2.2015.HD-TS.XVID.AC3.HQ.Hive-CM8
Thx Hive
CM8 Doing It Right The First Time
Sources:
Video: Italian 1080p Incoming
Audio: Sweet Line Big Thx to S4NDM4N
big thx guys
Notes:
Very nice quality video as usual,no movements, no flicker, was cammed a bit too much to the right side, but will do just fine
Encode:
Movie had cpl darker scenes and daylight were already perfect so i had to cut movie in 20 pieces and adjust brightness and contrast
as well as colours as needed. Movie itself is complete just no rolling endcredits.
Audio as usual a nice line from S4NDM4N, just first 3mins have some slight distortions here and theire,the rest is just fine.
got very nice
will do me till retail
enjoy
SORRY WAYNE PLEASE COME BACK LOL
Video: 720x400 @bitrate 1700 2pass
Audio: English Stereo Line 2.0
Sample: yes included
http://www.imdb.com/title/tt1951266/
General
Complete name : The.Hunger.Games-Mockingjay.Part.2.2015.HD-TS.XVID.AC3.HQ.Hive-CM8.avi
Format : AVI
Format/Info : Audio Video Interleave
File size : 1.72 GiB
Duration : 2h 5mn
Overall bit rate : 1 967 Kbps
Writing application : Nandub v1.0rc2
Writing library : Nandub build 1853/release
Video
ID : 0
Format : MPEG-4 Visual
Format profile : Advanced [email protected]
Format settings, BVOP : 2
Format settings, QPel : Yes
Format settings, GMC : No warppoints
Format settings, Matrix : Default (H.263)
Muxing mode : Packed bitstream
Codec ID : XVID
Codec ID/Hint : XviD
Duration : 2h 5mn
Bit rate : 1 699 Kbps
Width : 720 pixels
Height : 400 pixels
Display aspect ratio : 16:9
Frame rate : 29.970 fps
Color space : YUV
Chroma subsampling : 4:2:0
Bit depth : 8 bits
Scan type : Progressive
Compression mode : Lossy
Bits/(Pixel*Frame) : 0.197
Stream size : 1.49 GiB (86%)
Writing library : XviD 1.2.1 (UTC 2008-12-04)
Audio
ID : 1
Format : AC-3
Format/Info : Audio Coding 3
Codec ID : 2000
Duration : 2h 5mn
Bit rate mode : Constant
Bit rate : 256 Kbps
Channel(s) : 2 channels
Sampling rate : 48.0 KHz
Compression mode : Lossy
Stream size : 229 MiB (13%)
Alignment : Split accross interleaves
Interleave, duration : 33 ms (1.00 video frame)
Interleave, preload duration : 500 ms
Greetz
SugarB,iNCOMiNG,Izzy,MenaceIISociety,jiinx,SiMPLE,CherryBomb,bigguy79
ranbailey,ViSiON,UnKnOwN,YanKeeS,COPYxRIGHT,THC,VAiN,ACAB,DRs
LKRG,Kingstoner,SiMPLE,TiTAN,cadance,PLAYNOW
Unevano,BigVik,Rapeseed,SAFC,goldadvance,KaN1vE,Pinnz,Wayne,HiGH
SeeN,jtr,Limey,ICONiK,TED,rkofan,mrtoke09
Mr Hive