16.09.2021

The Blacklist S03e12 Download Torrent

leechers: 64
Added on May 20, 2016 by sajid790in TV
Torrent verified.

  • Episode title: The Troll Farmer
  • Episode: S03E01
  • Original run: 23 September 2013 — Present
  • IMDB:2741602
  • Detected quality: 720p
  • IMDB rating: 8.2 (54,828 votes)
  • Genres:Action, Drama, Family, Crime
  • Air date: October 1, 2015

The Blacklist S03 Season 3 720p HDTV HEVC x265_ESubs Complete_Sajid790 (Size: 3.56 GB)
The Blacklist S03E19 Cape May 720p HDTV HEVC x265_Sajid790.mkv100.4 MB
The Blacklist S03E16 The Caretaker 720p HDTV HEVC x265_Sajid790.mkv105.29 MB
The Blacklist S03E15 Drexel 720p HDTV HEVC x265_Sajid790.mkv114.68 MB
The Blacklist S03E21 Susan Hargrave 720p HDTV HEVC x265_Sajid790.mkv126.91 MB
The Blacklist S03E20 The Artax Network 720p HDTV HEVC x265_Sajid790.mkv131.19 MB
The Blacklist S03E23 Alexander Kirk Conclusion 720p HDTV HEVC x265_Sajid790.mkv136.08 MB
The Blacklist S03E22 Alexander Kirk 720p HDTV HEVC x265_Sajid790.mkv145.53 MB
The Blacklist S03E12 The Vehm 720p HDTV HEVC x265_Sajid790.mkv146.07 MB
The Blacklist S03E18 Mr. Solomon_Conclusion 720p HDTV HEVC x265_Sajid790.mkv147.23 MB
The Blacklist S03E14 Lady Ambrosia 720p HDTV HEVC x265_Sajid790.mkv148.67 MB
The Blacklist S03E10 The Director_ Conclusion 720p HDTV HEVC x265_Sajid790.mkv158.42 MB
The Blacklist S03E11 Mr. Gregory Devry 720p HDTV HEVC x265_Sajid790.mkv163.26 MB
The Blacklist S03E17 Mr. Solomon 720p HDTV HEVC x265_Sajid790.mkv165.17 MB
The Blacklist S03E06 Sir Crispin Crandall 720p HDTV HEVC x265_Sajid790.mkv173.1 MB
The Blacklist S03E07 Zal Bin Hasaan 720p HDTV HEVC x265_Sajid790.mkv173.18 MB
The Blacklist S03E02 Marvin Gerard 720p HDTV HEVC x265_Sajid790.mkv176.86 MB
The Blacklist S03E01 The Troll Farmer 720p HDTV HEVC x265_Sajid790.mkv177.56 MB
The Blacklist S03E04 The Djinn 720p HDTV HEVC x265_Sajid790.mkv179.15 MB
The Blacklist S03E05 Arioch Cain 720p HDTV HEVC x265_Sajid790.mkv179.55 MB
The Blacklist S03E13 Alistair Pitt 720p HDTV HEVC x265_Sajid790.mkv182.42 MB
The Blacklist S03E08 Kings Of The Highway 720p HDTV HEVC x265_Sajid790.mkv194.42 MB
The Blacklist S03E09 The Director 720p HDTV HEVC x265_Sajid790.mkv196.63 MB
The Blacklist S03E03 Eli Matchett 720p HDTV HEVC x265_Sajid790.mkv221.83 MB

Description

The Blacklist S03 Season 3 720p HDTV HEVC x265_ESubs Complete_Sajid790
https://extraimago.com/image..264-fleet-large.md.jpg[/img]

Sharing Widget


Download torrent
seeders:3
The Blacklist S03 Season 3 720p HDTV HEVC x265_ESubs Complete_Sajid790

The Blacklist S03e12 Download Torrent Season

General
Format : Matroska
Format version : Version 4 / Version 2
File size : 389 MiB
Duration : 43mn 5s
Overall bit rate : 1 262 Kbps
Video
ID : 1
Format : AVC
Format/Info : Advanced Video Codec
Format profile : [email protected]
Format settings, CABAC : Yes
Format settings, ReFrames : 4 frames
Codec ID : V_MPEG4/ISO/AVC
Duration : 43mn 5s
Bit rate : 1 036 Kbps
Width : 1 280 pixels
Height : 720 pixels
Display aspect ratio : 16:9
Frame rate mode : Constant
Frame rate : 23.976 (24000/1001) fps
Color space : YUV
Audio
ID : 2
Format : AC-3
Format/Info : Audio Coding 3
Mode extension : CM (complete main)
Format settings, Endianness : Big
Codec ID : A_AC3
Duration : 43mn 5s
Bit rate mode : Constant
Bit rate : 224 Kbps
Channel(s) : 6 channels
Channel positions : Front: L C R, Side: L R, LFE
Sampling rate : 48.0 KHz
Frame rate : 31.250 fps (1536 spf)
Compression mode : Lossy
Stream size : 69.0 MiB (18%)
Language : English
Default : No
Forced : No
Text
ID : 3
Format : UTF-8
Codec ID : S_TEXT/UTF8
Codec ID/Info : UTF-8 Plain Text
Duration : 42mn 20s
Bit rate : 106 bps
Count of elements : 728
Stream size : 33.0 KiB (0%)
Language : English
Default : No
Forced : No

The blacklist s03e12 download torrent 2017

The Blacklist S03e12 Torrent

  1. Greek subs for TV series such as The Walking Dead (greek subtitles), Arrow (greek subs) & The Blacklist (greek subs) - Ελληνικοί υπότιτλοι για σειρές - Greek TV.
  2. Download The Blacklist (2013) Season 3 S03 + Extras (1080p BluRay x265 HEVC 10bit AAC 5 1 English + German + Spanish RZeroX) [QxR] - ETTV torrents.
  3. The Blacklist Torrents - Page 3. TV torrents > The Blacklist torrents (total 192 torrents).

The Blacklist S03e12 Download Torrent Free

The.Blacklist.S03.720p.BluRay.x264-DEMAND[rartv] - torrent search and download. Picktorrent: blacklist s04e12 - Free Search and Download Torrents at search engine. Download Music, TV Shows, Movies, Anime, Software and more.