17.09.2021

Sanam Teri Kasam Hd 2016 Movie Download Torrent

Sanam Teri Kasam Hd 2016 Movie Download Torrent
  1. Sanam Teri Kasam Full Movie Download Torrent
  2. Sanam Teri Kasam Hd 2016 Movie Download Torrent Full
Sanam Teri Kasam Hd 2016 Movie Download Torrent

Download Sanam Teri Kasam 2016 Movie HD And Full HD for Free, Direct Download Sanam Teri Kasam 2016 Full Movie 720p & DvDRip For Free. Sanam Teri Kasam 2016 Watch online, full movie Free. You can Download Sanam Teri Kasam 2016 full movie free with easy direct option Only at Rdxhd.

Sanam Teri Kasam Full Movie Download Torrent


General
Complete name : Sanam Teri Kasam (2016) 720p Hindi HDRip x264 AAC by Full4movies.mkv
Format : Matroska
Format version : Version 4 / Version 2
File size : 1.43 GiB
Duration : 2 h 33 min
Overall bit rate : 1 334 kb/s
Movie name : www.Full4movies.co
Encoded date : UTC 2018-10-16 15:14:07
Writing application : mkvmerge v8.1.0 ('Psychedelic Postcard') 32bit
Writing library : libebml v1.3.1 + libmatroska v1.4.2
Video
ID : 1
Format : AVC
Format/Info : Advanced Video Codec
Format profile : [email protected]
Format settings, CABAC : Yes
Format settings, RefFrames : 5 frames
Codec ID : V_MPEG4/ISO/AVC
Duration : 2 h 33 min
Bit rate : 1 152 kb/s
Width : 1 280 pixels
Height : 544 pixels
Display aspect ratio : 2.35:1
Frame rate mode : Constant
Frame rate : 24.000 FPS
Color space : YUV
Chroma subsampling : 4:2:0
Bit depth : 8 bits
Scan type : Progressive
Bits/(Pixel*Frame) : 0.069
Stream size : 1.23 GiB (85%)
Writing library : x264 core 148 r2795 aaa9aa8
Default : Yes
Forced : No
Audio
ID : 2
Format : AAC
Format/Info : Advanced Audio Codec
Format profile : LC
Codec ID : A_AAC
Duration : 2 h 33 min
Bit rate : 192 kb/s
Channel(s) : 6 channels
Channel positions : Front: L C R, Side: L R, LFE
Sampling rate : 48.0 kHz
Frame rate : 46.875 FPS (1024 SPF)
Compression mode : Lossy
Stream size : 211 MiB (14%)
Language : Hindi
Default : Yes
Forced : No
Screen Shoots

Sanam Teri Kasam Hd 2016 Movie Download Torrent Full

Asus eeebook x205ta usb recovery iso download.
General
Complete name : Sanam Teri Kasam (2016) 720p Hindi HDRip x264 AAC by Full4movies.mkv
Format : Matroska
Format version : Version 4 / Version 2
File size : 1.43 GiB
Duration : 2 h 33 min
Overall bit rate : 1 334 kb/s
Movie name : www.Full4movies.co
Encoded date : UTC 2018-10-16 15:14:07
Writing application : mkvmerge v8.1.0 ('Psychedelic Postcard') 32bit
Writing library : libebml v1.3.1 + libmatroska v1.4.2
Video
ID : 1
Format : AVC
Format/Info : Advanced Video Codec
Format profile : [email protected]
Format settings, CABAC : Yes
Format settings, RefFrames : 5 frames
Codec ID : V_MPEG4/ISO/AVC
Duration : 2 h 33 min
Bit rate : 1 152 kb/s
Width : 1 280 pixels
Height : 544 pixels
Display aspect ratio : 2.35:1
Frame rate mode : Constant
Frame rate : 24.000 FPS
Color space : YUV
Chroma subsampling : 4:2:0
Bit depth : 8 bits
Scan type : Progressive
Bits/(Pixel*Frame) : 0.069
Stream size : 1.23 GiB (85%)
Writing library : x264 core 148 r2795 aaa9aa8
Default : Yes
Forced : No
Audio
ID : 2
Format : AAC
Format/Info : Advanced Audio Codec
Format profile : LC
Codec ID : A_AAC
Duration : 2 h 33 min
Bit rate : 192 kb/s
Channel(s) : 6 channels
Channel positions : Front: L C R, Side: L R, LFE
Sampling rate : 48.0 kHz
Frame rate : 46.875 FPS (1024 SPF)
Compression mode : Lossy
Stream size : 211 MiB (14%)
Language : Hindi
Default : Yes
Forced : No
Screen Shoots